[ オンエアリストに戻る ]
TITLE "Heavy Metal Syndicate #1070"
FILE "2011-08-14.mp3" WAVE
  TRACK 01 AUDIO
    TITLE "THE END OF AN ERA"
    PERFORMER "MICHAEL SCHENKER : Temple of Rock"
    INDEX 01 00:00:00

  TRACK 02 AUDIO
    TITLE "BIG FOOT"
    PERFORMER "CHICKENFOOT : Chickenfoot III"
    INDEX 01 12:18:66

  TRACK 03 AUDIO
    TITLE "LOVE WILL SET YOU FREE (alt mix)"
    PERFORMER "WHITESNAKE : Forevermore (Deluxe edition)"
    INDEX 01 17:57:22

  TRACK 04 AUDIO
    TITLE "NOBODY'S HERO"
    PERFORMER "EDGUY : Age of the Joker"
    INDEX 01 33:22:28

  TRACK 05 AUDIO
    TITLE "PIECE BY PIECE"
    PERFORMER "ANSWER : Revival"
    INDEX 01 39:49:71

  TRACK 06 AUDIO
    TITLE "Classic rock: BECAUSE OF YOUR LOVE"
    PERFORMER "G-FORCE : G-Force (Digitally remastered)"
    INDEX 01 52:15:15


SEO [PR] おまとめローン 冷え性対策 坂本龍馬 動画掲示板 レンタルサーバー SEO