[ オンエアリストに戻る ]
TITLE "Heavy Metal Syndicate #1069"
FILE "2011-08-07.mp3" WAVE
  TRACK 01 AUDIO
    TITLE "THE SERPENT"
    PERFORMER "RISE TO REMAIN : City of Vultures"
    INDEX 01 00:00:00

  TRACK 02 AUDIO
    TITLE "BREATHE"
    PERFORMER "EDGUY : Age of the Joker"
    INDEX 01 19:34:52

  TRACK 03 AUDIO
    TITLE "SURVIVING AGAINST THE ODDS"
    PERFORMER "SAXON : Call to Arms"
    INDEX 01 27:03:55

  TRACK 04 AUDIO
    TITLE "SENSE OF TIME"
    PERFORMER "JAN HOLBERG PROJECT : Sense of Time (feat. Joe Lynn Turner)"
    INDEX 01 31:10:01

  TRACK 05 AUDIO
    TITLE "LOST FOR WORDS"
    PERFORMER "JOHN WETTON : Raised in Captivity (feat. Steve Morse)"
    INDEX 01 36:06:68

  TRACK 06 AUDIO
    TITLE "Classic rock: STRAIGHT FORWARD, NO LOOKING BACK"
    PERFORMER "MAMA'S BOYS : Power and Passion (Digitally remastered)"
    INDEX 01 51:28:35


SEO [PR] おまとめローン 冷え性対策 坂本龍馬 動画掲示板 レンタルサーバー SEO