[ オンエアリストに戻る ]
TITLE "Heavy Metal Syndicate #1068"
FILE "2011-07-31.mp3" WAVE
  TRACK 01 AUDIO
    TITLE "POWER THROUGH FEAR"
    PERFORMER "RISE TO REMAIN : City of Vultures"
    INDEX 01 00:00:00

  TRACK 02 AUDIO
    TITLE "PAMELA"
    PERFORMER "STALA & SO. : It Is So."
    INDEX 01 10:14:01

  TRACK 03 AUDIO
    TITLE "HOT"
    PERFORMER "RECKLESS LOVE : Animal Attraction"
    INDEX 01 14:42:07

  TRACK 04 AUDIO
    TITLE "THE OUTSIDER"
    PERFORMER "BLACK COUNTRY COMMUNION : 2"
    INDEX 01 29:28:49

  TRACK 05 AUDIO
    TITLE "ONLY HELL KNOWS"
    PERFORMER "VADER : Welcome to the Morbid Reich"
    INDEX 01 35:25:11

  TRACK 06 AUDIO
    TITLE "Classic rock: LEGS"
    PERFORMER "ZZ TOP : Eliminator (Digitally remastered)"
    INDEX 01 50:35:47


SEO [PR] おまとめローン 冷え性対策 坂本龍馬 動画掲示板 レンタルサーバー SEO