[ オンエアリストに戻る ]
TITLE "Heavy Metal Syndicate #1067"
FILE "2011-07-24.mp3" WAVE
  TRACK 01 AUDIO
    TITLE "Reissue: DEVIL'S ISLAND"
    PERFORMER "MEGADETH : Peace Sells... But Who's Buying? - 25th anniversary (Digitally remastered)"
    INDEX 01 00:00:00

  TRACK 02 AUDIO
    TITLE "THE DOCTOR"
    PERFORMER "TREATMENT : This Might Hurt"
    INDEX 01 15:54:33

  TRACK 03 AUDIO
    TITLE "HEY SUPERSTAR"
    PERFORMER "MADINA LAKE : World War III"
    INDEX 01 19:53:23

  TRACK 04 AUDIO
    TITLE "THE TOAST"
    PERFORMER "NAZARETH : Big Dogz"
    INDEX 01 26:26:71

  TRACK 05 AUDIO
    TITLE "EASY LIVIN' (Live 2010)"
    PERFORMER "URIAH HEEP : Official Bootleg Volume Three - Live in Kawasaki Japan 2010"
    INDEX 01 30:23:24

  TRACK 06 AUDIO
    TITLE "WALK THAT PATH ALONE"
    PERFORMER "JASTA : Jasta"
    INDEX 01 34:54:62

  TRACK 07 AUDIO
    TITLE "Classic rock: THE GREEN MANALISHI (WITH THE TWO-PRONGED CROWN)"
    PERFORMER "JUDAS PRIEST : Killing Machine / Single Cuts (Digitally remastered)"
    INDEX 01 50:56:52


SEO [PR] おまとめローン 冷え性対策 坂本龍馬 動画掲示板 レンタルサーバー SEO