[ オンエアリストに戻る ]
TITLE "Heavy Metal Syndicate #1066"
FILE "2011-07-17.mp3" WAVE
  TRACK 01 AUDIO
    TITLE "ON FIRE"
    PERFORMER "ANVIL : Juggernaut of Justice"
    INDEX 01 00:00:00

  TRACK 02 AUDIO
    TITLE "DEPARTED"
    PERFORMER "TREATMENT : This Might Hurt"
    INDEX 01 10:39:31

  TRACK 03 AUDIO
    TITLE "YOUR MAJESTY"
    PERFORMER "GENTLEMANS PISTOLS : At Her Majesty's Pleasure"
    INDEX 01 15:08:52

  TRACK 04 AUDIO
    TITLE "THEY'RE COMING FOR ME"
    PERFORMER "MADINA LAKE : World War III"
    INDEX 01 21:52:20

  TRACK 05 AUDIO
    TITLE "THE FEARLESS MUST ENDURE"
    PERFORMER "JASTA : Jasta (feat. Zakk Wylde)"
    INDEX 01 25:56:14

  TRACK 06 AUDIO
    TITLE "Reissue: STREET LETHAL"
    PERFORMER "RACER X : Street Lethal (Digitally remastered)"
    INDEX 01 32:49:07

  TRACK 07 AUDIO
    TITLE "Classic rock: HAMMERHEAD SHARK"
    PERFORMER "DAVID LEE ROTH : A Little Ain't Enough"
    INDEX 01 52:01:44


SEO [PR] おまとめローン 冷え性対策 坂本龍馬 動画掲示板 レンタルサーバー SEO