[ オンエアリストに戻る ]
TITLE "Heavy Metal Syndicate #1065"
FILE "2011-07-10.mp3" WAVE
  TRACK 01 AUDIO
    TITLE "FIGHT'EM 'TIL YOU CAN'T"
    PERFORMER "ANTHRAX : Worship Music"
    INDEX 01 00:00:00

  TRACK 02 AUDIO
    TITLE "Reissue: PEACE SELLS (Live 1987)"
    PERFORMER "MEGADETH : Peace Sells... But Who's Buying? - 25th anniversary"
    INDEX 01 16:58:49

  TRACK 03 AUDIO
    TITLE "Reissue: THESE BOOTS WERE MADE FOR WALKIN' (Live 1987)"
    PERFORMER "MEGADETH : Peace Sells... But Who's Buying? - 25th anniversary"
    INDEX 01 21:15:16

  TRACK 04 AUDIO
    TITLE "Classic rock: ARE YOU READY (Live 1978)"
    PERFORMER "THIN LIZZY : The Boys Are Back in Town (released 1997)"
    INDEX 01 29:51:53

  TRACK 05 AUDIO
    TITLE "RELENTLESS"
    PERFORMER "SEPULTURA : Kairos"
    INDEX 01 36:22:31

  TRACK 06 AUDIO
    TITLE "Classic rock: SAVANNAH WOMAN"
    PERFORMER "TOMMY BOLIN : Teaser"
    INDEX 01 53:28:23


SEO [PR] おまとめローン 冷え性対策 坂本龍馬 動画掲示板 レンタルサーバー SEO