[ オンエアリストに戻る ]
TITLE "Heavy Metal Syndicate #1064"
FILE "2011-07-03.mp3" WAVE
  TRACK 01 AUDIO
    TITLE "WHEN HELL BREAKS LOOSE"
    PERFORMER "ANVIL : Juggernaut of Justice"
    INDEX 01 00:00:00

  TRACK 02 AUDIO
    TITLE "I WOULDN'T LET YOU"
    PERFORMER "GENTLEMANS PISTOLS : At Her Majesty's Pleasure"
    INDEX 01 12:35:14

  TRACK 03 AUDIO
    TITLE "OUT OF MY MIND"
    PERFORMER "WHOCARES (Ian Gillan, Tony Iommi & Friends) : Out of My Mind (single)"
    INDEX 01 18:23:44

  TRACK 04 AUDIO
    TITLE "IRIDESCENT"
    PERFORMER "LINKIN PARK : Transformers - Dark of the Moon - The Album (Soundtrack)"
    INDEX 01 25:22:72

  TRACK 05 AUDIO
    TITLE "SLAVE FOR THE GLORY"
    PERFORMER "LOVEX : Watch Out!"
    INDEX 01 31:14:08

  TRACK 06 AUDIO
    TITLE "Classic rock: BABY DRIVES ME CRAZY (Live 1977)"
    PERFORMER "THIN LIZZY : Live and Dangerous (Digitally remastered)"
    INDEX 01 49:30:44


SEO [PR] おまとめローン 冷え性対策 坂本龍馬 動画掲示板 レンタルサーバー SEO