[ オンエアリストに戻る ]
TITLE "Heavy Metal Syndicate #1063"
FILE "2011-06-26.mp3" WAVE
  TRACK 01 AUDIO
    TITLE "NOTHING LEFT"
    PERFORMER "RISE TO REMAIN : Nothing Left (download single)"
    INDEX 01 00:00:00

  TRACK 02 AUDIO
    TITLE "ROCK! ROCK! (TILL YOU DROP) (Live 2008-2009)"
    PERFORMER "DEF LEPPARD : Mirror Ball - Live & More"
    INDEX 01 14:01:71

  TRACK 03 AUDIO
    TITLE "ACTION (Live 2008-2009)"
    PERFORMER "DEF LEPPARD : Mirror Ball - Live & More"
    INDEX 01 17:54:25

  TRACK 04 AUDIO
    TITLE "WHITE NOISE"
    PERFORMER "RIVAL SONS : Pressure & Time"
    INDEX 01 23:37:58

  TRACK 05 AUDIO
    TITLE "LIVING IN SIN AGAIN"
    PERFORMER "GENTLEMANS PISTOLS : At Her Majesty's Pleasure"
    INDEX 01 28:08:37

  TRACK 06 AUDIO
    TITLE "WALKING DEAD MAN"
    PERFORMER "BLACK TIDE : Post Mortem"
    INDEX 01 34:19:42

  TRACK 07 AUDIO
    TITLE "Classic rock: CARRY ON ('94 version)"
    PERFORMER "ANGRA : Evil Warning (EP)"
    INDEX 01 50:47:45


SEO [PR] おまとめローン 冷え性対策 坂本龍馬 動画掲示板 レンタルサーバー SEO