[ オンエアリストに戻る ]
TITLE "Heavy Metal Syndicate #1062"
FILE "2011-06-19.mp3" WAVE
  TRACK 01 AUDIO
    TITLE "FROM CHAOS TO ETERNITY"
    PERFORMER "RHAPSODY OF FIRE : From Chaos to Eternity"
    INDEX 01 00:00:00

  TRACK 02 AUDIO
    TITLE "B.Y.H."
    PERFORMER "HAMMERFALL : Infected"
    INDEX 01 14:57:08

  TRACK 03 AUDIO
    TITLE "UNDEFEATED"
    PERFORMER "DEF LEPPARD : Mirror Ball - Live & More"
    INDEX 01 19:19:04

  TRACK 04 AUDIO
    TITLE "YOUNG LOVE"
    PERFORMER "RIVAL SONS : Pressure & Time"
    INDEX 01 25:15:35

  TRACK 05 AUDIO
    TITLE "CRUISE ON OUT"
    PERFORMER "RORY GALLAGHER : Notes from San Francisco"
    INDEX 01 29:22:32

  TRACK 06 AUDIO
    TITLE "ROPES"
    PERFORMER "IN FLAMES : Sounds of a Playground Fading"
    INDEX 01 35:57:01

  TRACK 07 AUDIO
    TITLE "Classic rock: RISING SUN"
    PERFORMER "HEAVENS GATE : Hell for Sale !"
    INDEX 01 52:01:62


SEO [PR] おまとめローン 冷え性対策 坂本龍馬 動画掲示板 レンタルサーバー SEO