[ オンエアリストに戻る ]
TITLE "Heavy Metal Syndicate #1061"
FILE "2011-06-12.mp3" WAVE
  TRACK 01 AUDIO
    TITLE "IT'S ALL ABOUT BELIEVIN'"
    PERFORMER "DEF LEPPARD : Mirror Ball - Live & More"
    INDEX 01 00:00:00

  TRACK 02 AUDIO
    TITLE "GET MINE"
    PERFORMER "RIVAL SONS : Pressure & Time"
    INDEX 01 14:53:02

  TRACK 03 AUDIO
    TITLE "KILL ALL CONTROL"
    PERFORMER "GEORGE LYNCH : Kill All Control"
    INDEX 01 18:14:48

  TRACK 04 AUDIO
    TITLE "ELECTRIC MESSIAH"
    PERFORMER "SYMPHONY X : Iconoclast"
    INDEX 01 23:04:32

  TRACK 05 AUDIO
    TITLE "RUE THE DAY"
    PERFORMER "RORY GALLAGHER : Notes from San Francisco"
    INDEX 01 33:26:63

  TRACK 06 AUDIO
    TITLE "Classic rock: NIGHTS IN WHITE SATIN"
    PERFORMER "MOODY BLUES with THE LONDON FESTIVAL ORCHESTRA conducted by PETER KNIGHT : Days of Future Passed (Digitally remastered)"
    INDEX 01 46:21:10


SEO [PR] おまとめローン 冷え性対策 坂本龍馬 動画掲示板 レンタルサーバー SEO