[ オンエアリストに戻る ]
TITLE "Heavy Metal Syndicate #1060"
FILE "2011-06-05.mp3" WAVE
  TRACK 01 AUDIO
    TITLE "WINGS ARE FOR ANGELS"
    PERFORMER "RIOT : One for All, All for One (Compilation)"
    INDEX 01 00:00:00

  TRACK 02 AUDIO
    TITLE "DELIVER US"
    PERFORMER "IN FLAMES : Sounds of a Playground Fading"
    INDEX 01 12:50:04

  TRACK 03 AUDIO
    TITLE "GROWIN' UP IN CALIFORNIA"
    PERFORMER "NIGHT RANGER : Somewhere in California"
    INDEX 01 17:02:33

  TRACK 04 AUDIO
    TITLE "ALL OVER THE ROAD"
    PERFORMER "RIVAL SONS : Pressure & Time"
    INDEX 01 22:46:14

  TRACK 05 AUDIO
    TITLE "666 - THE ENEMY WITHIN"
    PERFORMER "HAMMERFALL : Infected"
    INDEX 01 26:38:33

  TRACK 06 AUDIO
    TITLE "CONTAGIOUS"
    PERFORMER "ANTHEM : Heraldic Device"
    INDEX 01 33:51:61

  TRACK 07 AUDIO
    TITLE "Classic rock: GIMME SOME LOVIN'"
    PERFORMER "THUNDER : Backstreet Symphony (Digitally remastered)"
    INDEX 01 52:20:49


SEO [PR] おまとめローン 冷え性対策 坂本龍馬 動画掲示板 レンタルサーバー SEO