[ オンエアリストに戻る ]
TITLE "Heavy Metal Syndicate #1059"
FILE "2011-05-29.mp3" WAVE
  TRACK 01 AUDIO
    TITLE "REBEL LOVE SONG"
    PERFORMER "BLACK VEIL BRIDES : Set the World on Fire"
    INDEX 01 00:00:00

  TRACK 02 AUDIO
    TITLE "BURN DOWN LOS ANGELES"
    PERFORMER "RIVAL SONS : Pressure & Time"
    INDEX 01 15:37:07

  TRACK 03 AUDIO
    TITLE "ONE MORE TIME"
    PERFORMER "HAMMERFALL : Infected"
    INDEX 01 18:54:62

  TRACK 04 AUDIO
    TITLE "LIGHT UP THE NIGHT"
    PERFORMER "SYMPHONY X : Iconoclast"
    INDEX 01 25:24:71

  TRACK 05 AUDIO
    TITLE "JUULAR"
    PERFORMER "DEVIN TOWNSEND PROJECT : Deconstruction"
    INDEX 01 30:08:31

  TRACK 06 AUDIO
    TITLE "RITUAL"
    PERFORMER "JOURNEY : Eclipse"
    INDEX 01 34:59:59

  TRACK 07 AUDIO
    TITLE "Classic rock: TAILGUNNER"
    PERFORMER "IRON MAIDEN : No Prayer for the Dying / From Fear to Eternity - The Best of 1990-2010 (Digitally remastered)"
    INDEX 01 50:02:68


SEO [PR] おまとめローン 冷え性対策 坂本龍馬 動画掲示板 レンタルサーバー SEO