[ オンエアリストに戻る ]
TITLE "Heavy Metal Syndicate #1058"
FILE "2011-05-22.mp3" WAVE
  TRACK 01 AUDIO
    TITLE "(IT) FEELS SO GOOD"
    PERFORMER "STEVEN TYLER : (It) Feels So Good (download single)"
    INDEX 01 00:00:00

  TRACK 02 AUDIO
    TITLE "A NEW DAWN"
    PERFORMER "IN FLAMES : Sounds of a Playground Fading"
    INDEX 01 12:36:60

  TRACK 03 AUDIO
    TITLE "ROCK N' ROLL TONITE"
    PERFORMER "NIGHT RANGER : Somewhere in California"
    INDEX 01 17:37:68

  TRACK 04 AUDIO
    TITLE "THE OUTLAW"
    PERFORMER "HAMMERFALL : Infected"
    INDEX 01 23:29:10

  TRACK 05 AUDIO
    TITLE "BASTARDS OF THE MACHINE"
    PERFORMER "SYMPHONY X : Iconoclast"
    INDEX 01 28:53:48

  TRACK 06 AUDIO
    TITLE "HISINGEN BLUES"
    PERFORMER "GRAVEYARD : Hisingen Blues"
    INDEX 01 35:23:29

  TRACK 07 AUDIO
    TITLE "Classic rock: SAVE YOURSELF"
    PERFORMER "McAULEY SCHENKER GROUP : Save Yourself (Digitally remastered)"
    INDEX 01 49:00:25


SEO [PR] おまとめローン 冷え性対策 坂本龍馬 動画掲示板 レンタルサーバー SEO