[ オンエアリストに戻る ]
TITLE "Heavy Metal Syndicate #1057"
FILE "2011-05-15.mp3" WAVE
  TRACK 01 AUDIO
    TITLE "Reissue: YOU LOOKING AT ME, LOOKING AT YOU"
    PERFORMER "OZZY OSBOURNE : Blizzard of Ozz (2011 reissue)"
    INDEX 01 00:00:00

  TRACK 02 AUDIO
    TITLE "STRENGTH OF THE GRAVE"
    PERFORMER "3 INCHES OF BLOOD : Anthems for the Victorious (download single) (7" vinyl EP)"
    INDEX 01 10:40:51

  TRACK 03 AUDIO
    TITLE "NO GODS, NO MASTERS"
    PERFORMER "ARCH ENEMY : Khaos Legions"
    INDEX 01 14:23:22

  TRACK 04 AUDIO
    TITLE "INTO THE PARALLEL UNIVERSE"
    PERFORMER "MYGRAIN : Mygrain"
    INDEX 01 20:24:38

  TRACK 05 AUDIO
    TITLE "AIN'T FIT TO LIVE HERE"
    PERFORMER "GRAVEYARD : Hisingen Blues"
    INDEX 01 26:45:51

  TRACK 06 AUDIO
    TITLE "DIRTY DEEDS DONE DIRT CHEAP (Live 2009)"
    PERFORMER "AC/DC : Live at River Plate (DVD)"
    INDEX 01 31:31:16

  TRACK 07 AUDIO
    TITLE "Classic rock: MAPLE LEAF RAG"
    PERFORMER "KEITH EMERSON with the LONDON PHILHARMONIC ORCHESTRA : Works - Volume 2 (Digitally remastered)"
    INDEX 01 53:17:05


SEO [PR] おまとめローン 冷え性対策 坂本龍馬 動画掲示板 レンタルサーバー SEO