[ オンエアリストに戻る ]
TITLE "Heavy Metal Syndicate #1056"
FILE "2011-05-08.mp3" WAVE
  TRACK 01 AUDIO
    TITLE "ROCK N ROLL TRAIN (Live 2009)"
    PERFORMER "AC/DC : Live at River Plate (DVD)"
    INDEX 01 00:00:00

  TRACK 02 AUDIO
    TITLE "FREELOADER"
    PERFORMER "MILLION DOLLAR RELOAD : Anthems of a Degeneration"
    INDEX 01 13:53:69

  TRACK 03 AUDIO
    TITLE "Reissue: GOODBYE TO ROMANCE (2010 Guitar & Vocal Mix)"
    PERFORMER "OZZY OSBOURNE : Blizzard of Ozz (2011 reissue)"
    INDEX 01 18:41:20

  TRACK 04 AUDIO
    TITLE "NEVERMORE"
    PERFORMER "MORBID ANGEL : Illud Divinum Insanus"
    INDEX 01 25:40:35

  TRACK 05 AUDIO
    TITLE "SECRETS"
    PERFORMER "ARCH ENEMY : Khaos Legions"
    INDEX 01 29:44:19

  TRACK 06 AUDIO
    TITLE "ACROSS THE UNIVERSE"
    PERFORMER "SHADOWMAN : Watching Over You"
    INDEX 01 36:14:09

  TRACK 07 AUDIO
    TITLE "Classic rock: HELLO, I LOVE YOU (40th anniversary remix)"
    PERFORMER "DOORS : Waiting for the Sun (2007 reissue) / The Very Best of the Doors"
    INDEX 01 51:27:35


SEO [PR] おまとめローン 冷え性対策 坂本龍馬 動画掲示板 レンタルサーバー SEO