[ オンエアリストに戻る ]
TITLE "Heavy Metal Syndicate #1055"
FILE "2011-05-01.mp3" WAVE
  TRACK 01 AUDIO
    TITLE "BLOODSTAINED CROSS"
    PERFORMER "ARCH ENEMY : Khaos Legions"
    INDEX 01 00:00:00

  TRACK 02 AUDIO
    TITLE "ONE"
    PERFORMER "BILL LEVERTY : One (download single)"
    INDEX 01 15:27:55

  TRACK 03 AUDIO
    TITLE "NEW RELIGION"
    PERFORMER "BLACK VEIL BRIDES : Set the World on Fire"
    INDEX 01 21:21:12

  TRACK 04 AUDIO
    TITLE "MERMAID"
    PERFORMER "AMORPHIS : The Beginning of Times"
    INDEX 01 26:46:19

  TRACK 05 AUDIO
    TITLE "BLACK CLOUD"
    PERFORMER "FLOTSAM AND JETSAM : The Cold"
    INDEX 01 33:08:60

  TRACK 06 AUDIO
    TITLE "Classic rock: THE ANGEL SONG"
    PERFORMER "GREAT WHITE : ... Twice Shy (Digitally remastered)"
    INDEX 01 49:09:50


SEO [PR] おまとめローン 冷え性対策 坂本龍馬 動画掲示板 レンタルサーバー SEO