[ オンエアリストに戻る ]
TITLE "Heavy Metal Syndicate #1054"
FILE "2011-04-24.mp3" WAVE
  TRACK 01 AUDIO
    TITLE "GOODBYE MY FRIENDS"
    PERFORMER "SIXX: A.M. : This Is Gonna Hurt"
    INDEX 01 00:00:00

  TRACK 02 AUDIO
    TITLE "GOODNIGHT NEW YORK"
    PERFORMER "MILLION DOLLAR RELOAD : Anthems of a Degeneration"
    INDEX 01 15:25:21

  TRACK 03 AUDIO
    TITLE "THE ZOO"
    PERFORMER "ARCH ENEMY : Khaos Legions"
    INDEX 01 20:11:62

  TRACK 04 AUDIO
    TITLE "RENEGADES"
    PERFORMER "SHADOWMAN : Watching Over You"
    INDEX 01 26:22:01

  TRACK 05 AUDIO
    TITLE "YOU I NEED"
    PERFORMER "AMORPHIS : The Beginning of Times"
    INDEX 01 31:50:02

  TRACK 06 AUDIO
    TITLE "Classic rock: SO FAR AWAY"
    PERFORMER "DAVID GILMOUR : David Gilmour (Digitally remastered)"
    INDEX 01 46:30:62


SEO [PR] おまとめローン 冷え性対策 坂本龍馬 動画掲示板 レンタルサーバー SEO