[ オンエアリストに戻る ]
TITLE "Heavy Metal Syndicate #1053"
FILE "2011-04-17.mp3" WAVE
  TRACK 01 AUDIO
    TITLE "KHAOS OVERTURE (instrumental) / YESTERDAY IS DEAD AND GONE"
    PERFORMER "ARCH ENEMY : Khaos Legions"
    INDEX 01 00:00:00

  TRACK 02 AUDIO
    TITLE "LIVIN' IN THE CITY"
    PERFORMER "MILLION DOLLAR RELOAD : Anthems of a Degeneration"
    INDEX 01 10:31:57

  TRACK 03 AUDIO
    TITLE "ALL THE WAY UP (Live 2011)"
    PERFORMER "MR. BIG : Live from the Living Room"
    INDEX 01 14:50:11

  TRACK 04 AUDIO
    TITLE "PLAY WITH FIRE"
    PERFORMER "RALF SCHEEPERS : Scheepers"
    INDEX 01 22:22:14

  TRACK 05 AUDIO
    TITLE "SO LONG"
    PERFORMER "BLACK 'N BLUE : Hell Yeah!"
    INDEX 01 28:11:39

  TRACK 06 AUDIO
    TITLE "Classic rock: THE RAIN SONG"
    PERFORMER "LED ZEPPELIN : Houses of the Holy (Digitally remastered)"
    INDEX 01 46:22:20


SEO [PR] おまとめローン 冷え性対策 坂本龍馬 動画掲示板 レンタルサーバー SEO