[ オンエアリストに戻る ]
TITLE "Heavy Metal Syndicate #1052"
FILE "2011-04-10.mp3" WAVE
  TRACK 01 AUDIO
    TITLE "FORGOTTEN FOREVER"
    PERFORMER "BOREALIS : Fall from Grace"
    INDEX 01 00:00:00

  TRACK 02 AUDIO
    TITLE "ARE YOU WITH ME"
    PERFORMER "SIXX: A.M. : This Is Gonna Hurt"
    INDEX 01 11:52:74

  TRACK 03 AUDIO
    TITLE "AROUND THE WORLD (Live 2011)"
    PERFORMER "MR. BIG : Live from the Living Room"
    INDEX 01 18:34:69

  TRACK 04 AUDIO
    TITLE "BLACK SWAN"
    PERFORMER "PRIVATE LINE : Dead Decade"
    INDEX 01 24:39:00

  TRACK 05 AUDIO
    TITLE "SLEEPING WITH THE ENEMY"
    PERFORMER "DYNAZTY : Knock You Down"
    INDEX 01 29:47:27

  TRACK 06 AUDIO
    TITLE "Classic rock: STILL LOVING YOU"
    PERFORMER "SCORPIONS : Love at First Sting (Digitally remastered)"
    INDEX 01 47:04:36


SEO [PR] おまとめローン 冷え性対策 坂本龍馬 動画掲示板 レンタルサーバー SEO