[ オンエアリストに戻る ]
TITLE "Heavy Metal Syndicate #1051"
FILE "2011-04-03.mp3" WAVE
  TRACK 01 AUDIO
    TITLE "TO BE WITH YOU (Live 2011)"
    PERFORMER "MR. BIG : Live from the Living Room"
    INDEX 01 00:00:00

  TRACK 02 AUDIO
    TITLE "I CAN SEE YOU"
    PERFORMER "URIAH HEEP : Into the Wild"
    INDEX 01 21:33:37

  TRACK 03 AUDIO
    TITLE "TARGET"
    PERFORMER "BLACK 'N BLUE : Hell Yeah!"
    INDEX 01 25:47:08

  TRACK 04 AUDIO
    TITLE "REMISSION OF SIN"
    PERFORMER "RALF SCHEEPERS : Scheepers"
    INDEX 01 31:34:63

  TRACK 05 AUDIO
    TITLE "HIGHER & HIGHER"
    PERFORMER "BLACKOUT : Hope"
    INDEX 01 36:47:35

  TRACK 06 AUDIO
    TITLE "Classic rock: OPEN ARMS"
    PERFORMER "JOURNEY : Escape (Digitally remastered)"
    INDEX 01 47:44:21


SEO [PR] おまとめローン 冷え性対策 坂本龍馬 動画掲示板 レンタルサーバー SEO