[ オンエアリストに戻る ]
TITLE "Heavy Metal Syndicate #1050"
FILE "2011-03-27.mp3" WAVE
  TRACK 01 AUDIO
    TITLE "THIS IS GONNA HURT"
    PERFORMER "SIXX: A.M. : This Is Gonna Hurt"
    INDEX 01 00:00:00

  TRACK 02 AUDIO
    TITLE "FINEST HOUR"
    PERFORMER "BOREALIS : Fall from Grace"
    INDEX 01 11:19:29

  TRACK 03 AUDIO
    TITLE "GLORY (Live 2010)"
    PERFORMER "DIZZY MIZZ LIZZY : Live in Concert 2010 - The Reunion Tour"
    INDEX 01 15:59:13

  TRACK 04 AUDIO
    TITLE "YOU'RE NOT ALONE"
    PERFORMER "BLACKOUT : Hope"
    INDEX 01 23:08:49

  TRACK 05 AUDIO
    TITLE "THROUGH IT ALL"
    PERFORMER "NORTHER : Circle Regenerated"
    INDEX 01 28:50:35

  TRACK 06 AUDIO
    TITLE "Classic rock: STILL LOVE YOU"
    PERFORMER "ROD STEWART : Atlantic Crossing (Digitally remastered)"
    INDEX 01 51:01:55


SEO [PR] おまとめローン 冷え性対策 坂本龍馬 動画掲示板 レンタルサーバー SEO