[ オンエアリストに戻る ]
TITLE "Heavy Metal Syndicate #1049"
FILE "2011-03-20.mp3" WAVE
  TRACK 01 AUDIO
    TITLE "録音は3月14日、月曜日に行われています。"
    INDEX 01 00:00:00

  TRACK 02 AUDIO
    TITLE "REGENERATION"
    PERFORMER "BOREALIS : Fall from Grace"
    INDEX 01 09:17:13

  TRACK 03 AUDIO
    TITLE "AXE TO GRIND"
    PERFORMER "VICIOUS RUMORS : Razorback Killers"
    INDEX 01 16:34:66

  TRACK 04 AUDIO
    TITLE "IRON FIST / アイアン・フィスト"
    PERFORMER "KORPIKLAANI : Ukon Wacka / コルピの神様"
    INDEX 01 23:06:50

  TRACK 05 AUDIO
    TITLE "HERE COMES THE SUN"
    PERFORMER "GHOST : Opus Eponymous"
    INDEX 01 25:51:52

  TRACK 06 AUDIO
    TITLE "Reissue: TIME MACHINE (Wayne's world version)"
    PERFORMER "BLACK SABBATH : Dehumanizer (2011 reissue)"
    INDEX 01 33:34:02

  TRACK 07 AUDIO
    TITLE "Classic rock: REVELATION (MOTHER EARTH) / STEAL AWAY (THE NIGHT)"
    PERFORMER "OZZY OSBOURNE : Blizzard of Ozz (2002 reissue)"
    INDEX 01 45:32:74


SEO [PR] おまとめローン 冷え性対策 坂本龍馬 動画掲示板 レンタルサーバー SEO