[ オンエアリストに戻る ]
TITLE "Heavy Metal Syndicate #1047"
FILE "2011-03-06.mp3" WAVE
  TRACK 01 AUDIO
    TITLE "SIGN FROM THE SKIES"
    PERFORMER "PASTORE : The Price for the Human Sins"
    INDEX 01 00:00:00

  TRACK 02 AUDIO
    TITLE "MY EVIL WAYS"
    PERFORMER "WHITESNAKE : Forevermore"
    INDEX 01 13:18:46

  TRACK 03 AUDIO
    TITLE "WHIPPING BOY BLUES"
    PERFORMER "WHITESNAKE : Forevermore"
    INDEX 01 17:01:63

  TRACK 04 AUDIO
    TITLE "DEBAUCHERY AS A FINE ART"
    PERFORMER "MICHAEL MONROE : Sensory Overdrive (feat. Lemmy Kilmister)"
    INDEX 01 22:54:66

  TRACK 05 AUDIO
    TITLE "TEQUILA / 萌えろテキーラー!!"
    PERFORMER "KORPIKLAANI : Ukon Wacka / コルピの神様"
    INDEX 01 28:18:12

  TRACK 06 AUDIO
    TITLE "MURDERBALL"
    PERFORMER "VICIOUS RUMORS : Razorback Killers"
    INDEX 01 32:58:42

  TRACK 07 AUDIO
    TITLE "Classic rock: REMEMBER TOMORROW"
    PERFORMER "IRON MAIDEN : Iron Maiden (Digitally remastered)"
    INDEX 01 48:56:36


SEO [PR] おまとめローン 冷え性対策 坂本龍馬 動画掲示板 レンタルサーバー SEO