[ オンエアリストに戻る ]
TITLE "Heavy Metal Syndicate #1046"
FILE "2011-02-27.mp3" WAVE
  TRACK 01 AUDIO
    TITLE "LIES OF THE BEAUTIFUL PEOPLE"
    PERFORMER "SIXX: A.M. : This Is Gonna Hurt"
    INDEX 01 00:00:00

  TRACK 02 AUDIO
    TITLE "STEAL YOUR HEART AWAY"
    PERFORMER "WHITESNAKE : Forevermore"
    INDEX 01 13:26:44

  TRACK 03 AUDIO
    TITLE "EASY STREET"
    PERFORMER "UNION : The Union"
    INDEX 01 19:37:24

  TRACK 04 AUDIO
    TITLE "FIELDS OF AVALON"
    PERFORMER "SYMFONIA : In Paradisum"
    INDEX 01 24:54:51

  TRACK 05 AUDIO
    TITLE "MOTIONLESS"
    PERFORMER "HAUNTED : Unseen"
    INDEX 01 31:20:11

  TRACK 06 AUDIO
    TITLE "Classic rock: THE MARSHALL PLAN"
    PERFORMER "BLUE OYSTER CULT : Cultosaurus Erectus (Digitally remastered)"
    INDEX 01 50:29:44


SEO [PR] おまとめローン 冷え性対策 坂本龍馬 動画掲示板 レンタルサーバー SEO