[ オンエアリストに戻る ]
TITLE "Heavy Metal Syndicate #1045"
FILE "2011-02-20.mp3" WAVE
  TRACK 01 AUDIO
    TITLE "TRICK OF THE WRIST"
    PERFORMER "MICHAEL MONROE : Sensory Overdrive"
    INDEX 01 00:00:00

  TRACK 02 AUDIO
    TITLE "DARKEST DREAMS"
    PERFORMER "PASTORE : The Price for the Human Sins"
    INDEX 01 07:38:21

  TRACK 03 AUDIO
    TITLE "SHOVEL KNOCKOUT"
    PERFORMER "CHILDREN OF BODOM : Relentless, Reckless Forever"
    INDEX 01 11:50:15

  TRACK 04 AUDIO
    TITLE "NIGHTRIDER"
    PERFORMER "PUSHKING : The World As We Love It - A Rock and Roll Journey (featuring Billy F Gibbons)"
    INDEX 01 18:55:20

  TRACK 05 AUDIO
    TITLE "EASIER SAID THAN DONE"
    PERFORMER "WHITESNAKE : Forevermore"
    INDEX 01 24:10:61

  TRACK 06 AUDIO
    TITLE "DEVIL'S ADVOCATE"
    PERFORMER "DESTRUCTION : Day of Reckoning"
    INDEX 01 29:34:51

  TRACK 07 AUDIO
    TITLE "DEVILS IN MY HEAD"
    PERFORMER "MOTORHEAD : The World Is Yours"
    INDEX 01 33:42:66

  TRACK 08 AUDIO
    TITLE "Classic rock: GIMME' NO LIP"
    PERFORMER "DANGEROUS TOYS : Hellacious Acres"
    INDEX 01 50:47:59


SEO [PR] おまとめローン 冷え性対策 坂本龍馬 動画掲示板 レンタルサーバー SEO