[ オンエアリストに戻る ]
TITLE "Heavy Metal Syndicate #1044"
FILE "2011-02-13.mp3" WAVE
  TRACK 01 AUDIO
    TITLE "Classic rock: OUT IN THE FIELDS"
    PERFORMER "GARY MOORE & PHIL LYNOTT : Run for Cover"
    INDEX 01 00:00:00

  TRACK 02 AUDIO
    TITLE "LOVE WILL SET YOU FREE"
    PERFORMER "WHITESNAKE : Forevermore"
    INDEX 01 14:28:51

  TRACK 03 AUDIO
    TITLE "NOT MY FUNERAL"
    PERFORMER "CHILDREN OF BODOM : Relentless, Reckless Forever"
    INDEX 01 20:25:30

  TRACK 04 AUDIO
    TITLE "THE MARCH OF THE VARANGIAN GUARD"
    PERFORMER "TURISAS : Stand Up and Fight"
    INDEX 01 25:52:14

  TRACK 05 AUDIO
    TITLE "NATURE'S CHILD"
    PERFORMER "PUSHKING : The World As We Love It - A Rock and Roll Journey (featuring Udo Dirkschneider)"
    INDEX 01 31:22:20

  TRACK 06 AUDIO
    TITLE "NEVER BETTER"
    PERFORMER "HAUNTED : Unseen"
    INDEX 01 35:48:56

  TRACK 07 AUDIO
    TITLE "Classic rock: FULL MOON FEVER"
    PERFORMER "BAD MOON RISING : Bad Moon Rising"
    INDEX 01 52:07:17


SEO [PR] おまとめローン 冷え性対策 坂本龍馬 動画掲示板 レンタルサーバー SEO