[ オンエアリストに戻る ]
TITLE "Heavy Metal Syndicate #1043"
FILE "2011-02-06.mp3" WAVE
  TRACK 01 AUDIO
    TITLE "FAR AWAY"
    PERFORMER "PASTORE : The Price for the Human Sins"
    INDEX 01 00:00:00

  TRACK 02 AUDIO
    TITLE "ETERNAL"
    PERFORMER "DREAMSHADE : What Silence Hides"
    INDEX 01 13:12:66

  TRACK 03 AUDIO
    TITLE "STEP UP TO THE PLATE"
    PERFORMER "UNION : The Union"
    INDEX 01 18:12:31

  TRACK 04 AUDIO
    TITLE "IN THE DEAD OF NIGHT"
    PERFORMER "BLOODBOUND : Unholy Cross"
    INDEX 01 24:21:26

  TRACK 05 AUDIO
    TITLE "THE WORLD ENGULFED IN FLAMES"
    PERFORMER "DARKEST HOUR : The Human Romance"
    INDEX 01 30:31:13

  TRACK 06 AUDIO
    TITLE "Classic rock: HEARTBREAKER"
    PERFORMER "GRAND FUNK RAILROAD : On Time (Digitally remastered)"
    INDEX 01 49:31:71


SEO [PR] おまとめローン 冷え性対策 坂本龍馬 動画掲示板 レンタルサーバー SEO