[ オンエアリストに戻る ]
TITLE "Heavy Metal Syndicate #1042"
FILE "2011-01-30.mp3" WAVE
  TRACK 01 AUDIO
    TITLE "'78"
    PERFORMER "MICHAEL MONROE : Sensory Overdrive"
    INDEX 01 00:00:00

  TRACK 02 AUDIO
    TITLE "THE PRICE FOR THE HUMAN SINS"
    PERFORMER "PASTORE : The Price for the Human Sins"
    INDEX 01 16:23:52

  TRACK 03 AUDIO
    TITLE "Introduction: THE PRINCE"
    PERFORMER "METALLICA : ...And Justice for All / Garage Inc. (Digitally remastered)"
    INDEX 01 23:53:50

  TRACK 04 AUDIO
    TITLE "Classic rock: THE PRINCE (1986 remix)"
    PERFORMER "DIAMOND HEAD : Singles / Behold the Beginning"
    INDEX 01 26:24:45

  TRACK 05 AUDIO
    TITLE "EARTHLINGS"
    PERFORMER "DEADLOCK : Bizarro World"
    INDEX 01 33:37:10

  TRACK 06 AUDIO
    TITLE "Classic rock: CARRIE"
    PERFORMER "EUROPE : The Final Countdown (Digitally remastered)"
    INDEX 01 48:49:02


SEO [PR] おまとめローン 冷え性対策 坂本龍馬 動画掲示板 レンタルサーバー SEO