[ オンエアリストに戻る ]
TITLE "Heavy Metal Syndicate #1041"
FILE "2011-01-23.mp3" WAVE
  TRACK 01 AUDIO
    TITLE "Classic rock: SHE'S A LIAR"
    PERFORMER "Y&T : In Rock We Trust (Digitally remastered)"
    INDEX 01 00:00:00

  TRACK 02 AUDIO
    TITLE "AS SERENITY FALLS"
    PERFORMER "DREAMSHADE : What Silence Hides"
    INDEX 01 14:27:22

  TRACK 03 AUDIO
    TITLE "THE SHELTER'S ON FIRE"
    PERFORMER "HIBRIA : Blind Ride"
    INDEX 01 19:02:40

  TRACK 04 AUDIO
    TITLE "RISING ANEW"
    PERFORMER "POWER QUEST : Blood Alliance"
    INDEX 01 26:19:24

  TRACK 05 AUDIO
    TITLE "AS LONG AS I HAVE YOU"
    PERFORMER "WHITESNAKE : Gold (Compilation) (released 2006)"
    INDEX 01 33:03:52

  TRACK 06 AUDIO
    TITLE "Reissue: ARTIFACTS OF THE BLACK RAIN (Live 2004)"
    PERFORMER "IN FLAMES : The Jester Race (2011 reissue)"
    INDEX 01 38:44:30

  TRACK 07 AUDIO
    TITLE "Classic rock: HOT FOR TEACHER"
    PERFORMER "VAN HALEN : 1984 (Digitally remastered)"
    INDEX 01 51:30:05


SEO [PR] おまとめローン 冷え性対策 坂本龍馬 動画掲示板 レンタルサーバー SEO