[ オンエアリストに戻る ]
TITLE "Heavy Metal Syndicate #1040"
FILE "2011-01-16.mp3" WAVE
  TRACK 01 AUDIO
    TITLE "IF ONLY SHE KNEW"
    PERFORMER "GLAMOUR OF THE KILL : The Summoning"
    INDEX 01 00:00:00

  TRACK 02 AUDIO
    TITLE "THE FOUR HORSEMEN (Live 2010)"
    PERFORMER "METALLICA : Six Feet Down Under Part II (EP)"
    INDEX 01 12:11:56

  TRACK 03 AUDIO
    TITLE "MASTER OF PUPPETS (Live 2010)"
    PERFORMER "METALLICA : Six Feet Down Under Part II (EP)"
    INDEX 01 17:22:06

  TRACK 04 AUDIO
    TITLE "DESTINY"
    PERFORMER "TEN : Stormwarning"
    INDEX 01 22:08:39

  TRACK 05 AUDIO
    TITLE "BORN TO LOSE"
    PERFORMER "MOTORHEAD : The World Is Yours"
    INDEX 01 28:32:12

  TRACK 06 AUDIO
    TITLE "Classic rock: WARRIOR"
    PERFORMER "RIOT : Rock City"
    INDEX 01 50:48:71


SEO [PR] おまとめローン 冷え性対策 坂本龍馬 動画掲示板 レンタルサーバー SEO