[ オンエアリストに戻る ]
TITLE "Heavy Metal Syndicate #1039"
FILE "2011-01-09.mp3" WAVE
  TRACK 01 AUDIO
    TITLE "SEEK AND DESTROY (Live 2008)"
    PERFORMER "METALLICA : Live at Grimey's (EP)"
    INDEX 01 00:00:00

  TRACK 02 AUDIO
    TITLE "I KNOW HOW TO DIE"
    PERFORMER "MOTORHEAD : The World Is Yours"
    INDEX 01 13:39:54

  TRACK 03 AUDIO
    TITLE "STAND UP AND FIGHT"
    PERFORMER "TURISAS : Stand Up and Fight"
    INDEX 01 18:51:41

  TRACK 04 AUDIO
    TITLE "KINGDOM COME"
    PERFORMER "TEN : Stormwarning"
    INDEX 01 26:37:41

  TRACK 05 AUDIO
    TITLE "Reissue: MY SWEET SHADOW (Remix)"
    PERFORMER "IN FLAMES : Soundtrack to Your Escape (2011 reissue)"
    INDEX 01 34:31:16

  TRACK 06 AUDIO
    TITLE "WELCOME TO THE HORROR SHOW"
    PERFORMER "HIBRIA : Blind Ride"
    INDEX 01 38:54:19

  TRACK 07 AUDIO
    TITLE "Classic rock: CAN'T GET ENOUGH"
    PERFORMER "BAD COMPANY : Bad Company (Digitally remastered)"
    INDEX 01 50:41:42


SEO [PR] おまとめローン 冷え性対策 坂本龍馬 動画掲示板 レンタルサーバー SEO