[ オンエアリストに戻る ]
TITLE "Heavy Metal Syndicate #1038"
FILE "2011-01-02.mp3" WAVE
  TRACK 01 AUDIO
    TITLE "WAS IT WORTH IT?"
    PERFORMER "CHILDREN OF BODOM : Relentless, Reckless Forever"
    INDEX 01 00:00:00

  TRACK 02 AUDIO
    TITLE "Introduction: 春の海"
    PERFORMER "箏:宮城道雄 尺八:吉田晴風 : 春の海 (single)"
    INDEX 01 04:48:41

  TRACK 03 AUDIO
    TITLE "SHOOT ME DOWN"
    PERFORMER "HIBRIA : Blind Ride"
    INDEX 01 10:40:36

  TRACK 04 AUDIO
    TITLE "BYE BYE BITCH BYE BYE"
    PERFORMER "MOTORHEAD : The World Is Yours"
    INDEX 01 15:24:27

  TRACK 05 AUDIO
    TITLE "STORMWARNING"
    PERFORMER "TEN : Stormwarning"
    INDEX 01 21:36:52

  TRACK 06 AUDIO
    TITLE "LOVE THY NEIGHBOR"
    PERFORMER "HURTSMILE : Hurtsmile"
    INDEX 01 27:26:30

  TRACK 07 AUDIO
    TITLE "Reissue: DISCOVER ME LIKE EMPTINESS"
    PERFORMER "IN FLAMES : Soundtrack to Your Escape (2011 reissue)"
    INDEX 01 33:58:13

  TRACK 08 AUDIO
    TITLE "Classic rock: EXCITER (Live 1979)"
    PERFORMER "JUDAS PRIEST : Priest in the East - Live in Japan (Digitally remastered)"
    INDEX 01 49:52:48


SEO [PR] おまとめローン 冷え性対策 坂本龍馬 動画掲示板 レンタルサーバー SEO