[ オンエアリストに戻る ]
TITLE "Heavy Metal Syndicate #999"
FILE "2010-04-04.mp3" WAVE
  TRACK 01 AUDIO
    TITLE "SNAKE FIGHTER"
    PERFORMER "3 INCHES OF BLOOD : Here Waits Thy Doom"
    INDEX 01 00:00:00

  TRACK 02 AUDIO
    TITLE "MY HEART CRIES OUT FOR YOU"
    PERFORMER "DARK ILLUSION : Where the Eagles Fly"
    INDEX 01 16:15:11

  TRACK 03 AUDIO
    TITLE "FINGER ON THE TRIGGER"
    PERFORMER "ASIA : Omega"
    INDEX 01 23:01:02

  TRACK 04 AUDIO
    TITLE "DOWN"
    PERFORMER "ENGEL : Threnody"
    INDEX 01 30:04:02

  TRACK 05 AUDIO
    TITLE "Introduction: BORN TO BE WILD"
    PERFORMER "STEPPENWOLF : Steppenwolf (Digitally remastered)"
    INDEX 01 44:15:10

  TRACK 06 AUDIO
    TITLE "Introduction: MAGIC CARPET RIDE"
    PERFORMER "STEPPENWOLF : Steppenwolf the Second (Digitally remastered)"
    INDEX 01 47:11:51

  TRACK 07 AUDIO
    TITLE "Classic rock: MAGIC CARPET RIDE"
    PERFORMER "SLASH and MICHAEL MONROE : Coneheads (Soundtrack)"
    INDEX 01 51:36:35


SEO [PR] おまとめローン 冷え性対策 坂本龍馬 動画掲示板 レンタルサーバー SEO