[ オンエアリストに戻る ]
TITLE "Heavy Metal Syndicate #998"
FILE "2010-03-28.mp3" WAVE
  TRACK 01 AUDIO
    TITLE "RAT RACE"
    PERFORMER "TOBIAS SAMMET'S AVANTASIA : Angel of Babylon (feat. Jorn Lande)"
    INDEX 01 00:00:00

  TRACK 02 AUDIO
    TITLE "CRUCIFY THE DEAD"
    PERFORMER "SLASH : Slash (feat. Ozzy Osbourne)"
    INDEX 01 10:57:71

  TRACK 03 AUDIO
    TITLE "MONEY, IT'S PURE EVIL"
    PERFORMER "BIGELF : Cheat the Gallows"
    INDEX 01 16:27:59

  TRACK 04 AUDIO
    TITLE "HOLY WAR"
    PERFORMER "ASIA : Omega"
    INDEX 01 22:08:10

  TRACK 05 AUDIO
    TITLE "Reissue: FORSAKEN"
    PERFORMER "SKILLET : Collide (released 2003)"
    INDEX 01 30:39:71

  TRACK 06 AUDIO
    TITLE "UNTIL ETERNITY ENDS"
    PERFORMER "ENGEL : Threnody"
    INDEX 01 35:15:10

  TRACK 07 AUDIO
    TITLE "Classic rock: NODDING DONKEY BLUES"
    PERFORMER "IRON MAIDEN : Be Quick or Be Dead (single)"
    INDEX 01 52:23:42


SEO [PR] おまとめローン 冷え性対策 坂本龍馬 動画掲示板 レンタルサーバー SEO