[ オンエアリストに戻る ]
TITLE "Heavy Metal Syndicate #997"
FILE "2010-03-21.mp3" WAVE
  TRACK 01 AUDIO
    TITLE "DOCTOR ALIBI"
    PERFORMER "SLASH : Slash (feat. Lemmy Kilmister)"
    INDEX 01 00:00:00

  TRACK 02 AUDIO
    TITLE "MASTER OF PUPPETS"
    PERFORMER "VAN CANTO : Tribe of Force"
    INDEX 01 11:19:29

  TRACK 03 AUDIO
    TITLE "COLD HEARTED MAN"
    PERFORMER "AC/DC : Iron Man 2 (Soundtrack) / Backtracks"
    INDEX 01 18:26:02

  TRACK 04 AUDIO
    TITLE "THE RIGHT TO ROCK (Reunion version)"
    PERFORMER "KEEL : The Right to Rock (25th anniversary edition)"
    INDEX 01 24:56:60

  TRACK 05 AUDIO
    TITLE "SILENT KILLER"
    PERFORMER "3 INCHES OF BLOOD : Here Waits Thy Doom"
    INDEX 01 29:08:69

  TRACK 06 AUDIO
    TITLE "THRENODY"
    PERFORMER "ENGEL : Threnody"
    INDEX 01 35:37:21

  TRACK 07 AUDIO
    TITLE "Classic rock: WHO'S TO BLAME"
    PERFORMER "JIMMY PAGE : Death Wish II (Soundtrack) (feat. Chris Farlowe)"
    INDEX 01 51:43:59


SEO [PR] おまとめローン 冷え性対策 坂本龍馬 動画掲示板 レンタルサーバー SEO