[ オンエアリストに戻る ]
TITLE "Heavy Metal Syndicate #996"
FILE "2010-03-14.mp3" WAVE
  TRACK 01 AUDIO
    TITLE "GRAVEST SHOW ON EARTH"
    PERFORMER "BIGELF : Cheat the Gallows"
    INDEX 01 00:00:00

  TRACK 02 AUDIO
    TITLE "THE DESPERATE POET"
    PERFORMER "WUTHERING HEIGHTS : Salt"
    INDEX 01 10:54:61

  TRACK 03 AUDIO
    TITLE "NEWBORN TOMORROW"
    PERFORMER "SINBREED : When Worlds Collide"
    INDEX 01 19:29:15

  TRACK 04 AUDIO
    TITLE "BY THE SWORD"
    PERFORMER "SLASH : Slash (feat. Andrew Stockdale)"
    INDEX 01 26:32:50

  TRACK 05 AUDIO
    TITLE "A THOUSAND LIES"
    PERFORMER "TRIPTYKON : Eparistera Daimones"
    INDEX 01 32:41:50

  TRACK 06 AUDIO
    TITLE "Classic rock: JACK O'LANTERN"
    PERFORMER "BABE RUTH : Babe Ruth (Digitally remastered)"
    INDEX 01 52:05:04


SEO [PR] おまとめローン 冷え性対策 坂本龍馬 動画掲示板 レンタルサーバー SEO