[ オンエアリストに戻る ]
TITLE "Heavy Metal Syndicate #995"
FILE "2010-03-07.mp3" WAVE
  TRACK 01 AUDIO
    TITLE "THE MAD SAILOR"
    PERFORMER "WUTHERING HEIGHTS : Salt"
    INDEX 01 00:00:00

  TRACK 02 AUDIO
    TITLE "PUSH & PULL"
    PERFORMER "KEEL : Streets of Rock & Roll"
    INDEX 01 12:16:20

  TRACK 03 AUDIO
    TITLE "HYDRA"
    PERFORMER "BIGELF : Cheat the Gallows"
    INDEX 01 18:03:48

  TRACK 04 AUDIO
    TITLE "MOTHER MARIA"
    PERFORMER "SLASH : Music for Relief. Download to Donate for Haiti (feat. Beth Hart) (Compilation)"
    INDEX 01 24:02:16

  TRACK 05 AUDIO
    TITLE "SURFACE THE INFINITE"
    PERFORMER "DARK TRANQUILLITY : We Are the Void"
    INDEX 01 28:54:46

  TRACK 06 AUDIO
    TITLE "BATTLES AND BROTHERHOOD"
    PERFORMER "3 INCHES OF BLOOD : Here Waits Thy Doom"
    INDEX 01 34:02:23

  TRACK 07 AUDIO
    TITLE "Classic rock: METAL HEALTH"
    PERFORMER "QUIET RIOT : Metal Health (Digitally remastered)"
    INDEX 01 50:02:29


SEO [PR] おまとめローン 冷え性対策 坂本龍馬 動画掲示板 レンタルサーバー SEO