[ オンエアリストに戻る ]
TITLE "Heavy Metal Syndicate #994"
FILE "2010-02-28.mp3" WAVE
  TRACK 01 AUDIO
    TITLE "THE EVILS OF ROCK & ROLL"
    PERFORMER "BIGELF : Cheat the Gallows"
    INDEX 01 00:00:00

  TRACK 02 AUDIO
    TITLE "LOST FOREVER"
    PERFORMER "VAN CANTO : Tribe of Force"
    INDEX 01 19:38:23

  TRACK 03 AUDIO
    TITLE "STREETS OF ROCK & ROLL"
    PERFORMER "KEEL : Streets of Rock & Roll"
    INDEX 01 24:35:60

  TRACK 04 AUDIO
    TITLE "OVER THE RAINBOW"
    PERFORMER "JEFF BECK : Emotion & Commotion"
    INDEX 01 30:52:35

  TRACK 05 AUDIO
    TITLE "INTRO / THE TREASON WALL (Live 2008)"
    PERFORMER "DARK TRANQUILLITY : Where Death Is Most Alive (CD)"
    INDEX 01 36:12:10

  TRACK 06 AUDIO
    TITLE "Classic rock: HIROSHIMA"
    PERFORMER "GARY MOORE : Dirty Fingers (Digitally remastered)"
    INDEX 01 51:11:11


SEO [PR] おまとめローン 冷え性対策 坂本龍馬 動画掲示板 レンタルサーバー SEO