[ オンエアリストに戻る ]
TITLE "Heavy Metal Syndicate #993"
FILE "2010-02-21.mp3" WAVE
  TRACK 01 AUDIO
    TITLE "TESTAMENT OF ROCK"
    PERFORMER "ASTRAL DOORS : Requiem of Time"
    INDEX 01 00:00:00

  TRACK 02 AUDIO
    TITLE "SNAKES FOR THE DIVINE"
    PERFORMER "HIGH ON FIRE : Snakes for the Divine"
    INDEX 01 10:48:56

  TRACK 03 AUDIO
    TITLE "PURIFIED"
    PERFORMER "RAGE : Strings to a Web"
    INDEX 01 17:54:05

  TRACK 04 AUDIO
    TITLE "STONE FREE"
    PERFORMER "JIMI HENDRIX : Valleys of Neptune"
    INDEX 01 24:52:00

  TRACK 05 AUDIO
    TITLE "I PUT A SPELL ON YOU"
    PERFORMER "JEFF BECK : Emotion & Commotion (feat. Joss Stone)"
    INDEX 01 28:36:35

  TRACK 06 AUDIO
    TITLE "I AM THE VOID"
    PERFORMER "DARK TRANQUILLITY : We Are the Void"
    INDEX 01 33:46:69

  TRACK 07 AUDIO
    TITLE "Classic rock: KAYLEIGH"
    PERFORMER "MARILLION : Misplaced Childhood (Digitally remastered)"
    INDEX 01 51:58:37


SEO [PR] おまとめローン 冷え性対策 坂本龍馬 動画掲示板 レンタルサーバー SEO