[ オンエアリストに戻る ]
TITLE "Heavy Metal Syndicate #992"
FILE "2010-02-14.mp3" WAVE
  TRACK 01 AUDIO
    TITLE "SHINE FOREVER"
    PERFORMER "GAMMA RAY : To the Metal!"
    INDEX 01 00:00:00

  TRACK 02 AUDIO
    TITLE "INTO THE LIGHT"
    PERFORMER "RAGE : Strings to a Web"
    INDEX 01 09:26:01

  TRACK 03 AUDIO
    TITLE "WE BELONG"
    PERFORMER "SERPENTINE : A Touch of Heaven"
    INDEX 01 16:09:55

  TRACK 04 AUDIO
    TITLE "IN VAIN"
    PERFORMER "OVERKILL : Ironbound"
    INDEX 01 21:28:46

  TRACK 05 AUDIO
    TITLE "A GRAVE INVERSED"
    PERFORMER "IHSAHN : After"
    INDEX 01 29:14:27

  TRACK 06 AUDIO
    TITLE "Classic rock: BURNING BRIDGES"
    PERFORMER "STATUS QUO : Ain't Complaining"
    INDEX 01 51:07:66


SEO [PR] おまとめローン 冷え性対策 坂本龍馬 動画掲示板 レンタルサーバー SEO