[ オンエアリストに戻る ]
TITLE "Heavy Metal Syndicate #991"
FILE "2010-02-07.mp3" WAVE
  TRACK 01 AUDIO
    TITLE "THE EDGE OF DARKNESS"
    PERFORMER "RAGE : Strings to a Web"
    INDEX 01 00:00:00

  TRACK 02 AUDIO
    TITLE "SEE THE LIGHT"
    PERFORMER "DREAM EVIL : In the Night"
    INDEX 01 12:54:05

  TRACK 03 AUDIO
    TITLE "RISE"
    PERFORMER "GAMMA RAY : To the Metal!"
    INDEX 01 16:47:46

  TRACK 04 AUDIO
    TITLE "HIGHWAY TO HELL (Live 1991)"
    PERFORMER "AC/DC : Backtracks"
    INDEX 01 23:23:29

  TRACK 05 AUDIO
    TITLE "SHATTER ME WITH HOPE"
    PERFORMER "HIM : Screamworks - Love in Theory and Practice"
    INDEX 01 30:00:13

  TRACK 06 AUDIO
    TITLE "Classic rock: STILL LOVING YOU"
    PERFORMER "SCORPIONS : Love at First Sting (Digitally remastered)"
    INDEX 01 49:37:08


SEO [PR] おまとめローン 冷え性対策 坂本龍馬 動画掲示板 レンタルサーバー SEO