[ オンエアリストに戻る ]
TITLE "Heavy Metal Syndicate #990"
FILE "2010-01-31.mp3" WAVE
  TRACK 01 AUDIO
    TITLE "TIME TO LIVE"
    PERFORMER "GAMMA RAY : To the Metal!"
    INDEX 01 00:00:00

  TRACK 02 AUDIO
    TITLE "STICK AROUND"
    PERFORMER "AC/DC : Backtracks"
    INDEX 01 11:26:14

  TRACK 03 AUDIO
    TITLE "ENDLESS WAR"
    PERFORMER "OVERKILL : Ironbound"
    INDEX 01 16:13:59

  TRACK 04 AUDIO
    TITLE "FANFARE FOR THE COMMON MAN (Live 1986)"
    PERFORMER "EMERSON, LAKE & POWELL : Live in Concert"
    INDEX 01 24:00:50

  TRACK 05 AUDIO
    TITLE "FROZEN LAKES ON MARS"
    PERFORMER "IHSAHN : After"
    INDEX 01 30:59:20

  TRACK 06 AUDIO
    TITLE "Classic rock: THE SCHOOL OF INSTANT PAIN"
    PERFORMER "TRIUMVIRAT : Spartacus"
    INDEX 01 48:45:27


SEO [PR] おまとめローン 冷え性対策 坂本龍馬 動画掲示板 レンタルサーバー SEO