[ オンエアリストに戻る ]
TITLE "Heavy Metal Syndicate #989"
FILE "2010-01-24.mp3" WAVE
  TRACK 01 AUDIO
    TITLE "ALL YOU NEED TO KNOW"
    PERFORMER "GAMMA RAY : To the Metal! (feat. Michael Kiske)"
    INDEX 01 00:00:00

  TRACK 02 AUDIO
    TITLE "DIRTY DEEDS DONE DIRT CHEAP (Live 1977)"
    PERFORMER "AC/DC : Backtracks"
    INDEX 01 13:04:21

  TRACK 03 AUDIO
    TITLE "SAFE IN NEW YORK CITY (Live 2000)"
    PERFORMER "AC/DC : Backtracks"
    INDEX 01 18:07:12

  TRACK 04 AUDIO
    TITLE "IMMORTAL"
    PERFORMER "DREAM EVIL : In the Night"
    INDEX 01 25:12:39

  TRACK 05 AUDIO
    TITLE "SAPARI"
    PERFORMER "ORPHANED LAND : The Never Ending Way of ORWarriOR"
    INDEX 01 30:15:51

  TRACK 06 AUDIO
    TITLE "HIGHLY STRUNG"
    PERFORMER "ORIANTHI : Believe"
    INDEX 01 36:24:65

  TRACK 07 AUDIO
    TITLE "Classic rock: KING OF THE SILVER SCREEN"
    PERFORMER "ALICE COOPER : Lace and Whiskey"
    INDEX 01 49:46:56


SEO [PR] おまとめローン 冷え性対策 坂本龍馬 動画掲示板 レンタルサーバー SEO