[ オンエアリストに戻る ]
TITLE "Heavy Metal Syndicate #988"
FILE "2010-01-17.mp3" WAVE
  TRACK 01 AUDIO
    TITLE "FALLING DOWN"
    PERFORMER "ROYAL HUNT : X"
    INDEX 01 00:00:00

  TRACK 02 AUDIO
    TITLE "BRING ME THE NIGHT"
    PERFORMER "OVERKILL : Ironbound"
    INDEX 01 09:05:60

  TRACK 03 AUDIO
    TITLE "YOU CAN'T HURT STEEL"
    PERFORMER "MORNING AFTER : You Can't Hurt Steel"
    INDEX 01 14:35:36

  TRACK 04 AUDIO
    TITLE "SHAKE ME (Live 2005)"
    PERFORMER "CINDERELLA : Live at the Mohegan Sun"
    INDEX 01 21:16:05

  TRACK 05 AUDIO
    TITLE "INFINITY BURNING (medley) (Live 2006)"
    PERFORMER "EMPEROR : Live at Wacken Open Air 2006 - A Night of Emperial Wrath (DVD)"
    INDEX 01 29:59:71

  TRACK 06 AUDIO
    TITLE "Classic rock: HELLRIDER"
    PERFORMER "MALICE : In the Beginning..."
    INDEX 01 51:50:14


SEO [PR] おまとめローン 冷え性対策 坂本龍馬 動画掲示板 レンタルサーバー SEO