[ オンエアリストに戻る ]
TITLE "Heavy Metal Syndicate #987 - 藤井宏和リクエストスペシャル"
FILE "2010-01-10.mp3" WAVE
  TRACK 01 AUDIO
    TITLE "Request: COMMUNICATION BREAKDOWN"
    PERFORMER "LED ZEPPELIN : Led Zeppelin (Digitally remastered)"
    INDEX 01 00:00:00

  TRACK 02 AUDIO
    TITLE "Request: EAT THE RICH"
    PERFORMER "AEROSMITH : Get a Grip (Digitally remastered)"
    INDEX 01 08:37:28

  TRACK 03 AUDIO
    TITLE "Request: STRAIGHT FOR THE HEART"
    PERFORMER "WHITESNAKE : Whitesnake (Digitally remastered)"
    INDEX 01 13:56:53

  TRACK 04 AUDIO
    TITLE "Request: PIECE OF ME"
    PERFORMER "SKID ROW : Skid Row (Digitally remastered)"
    INDEX 01 22:19:65

  TRACK 05 AUDIO
    TITLE "Request: GOODBYE TO ROMANCE (Live 1981)"
    PERFORMER "OZZY OSBOURNE : Tribute (Digitally remastered)"
    INDEX 01 27:13:63

  TRACK 06 AUDIO
    TITLE "Request: DREAMS"
    PERFORMER "VAN HALEN : 5150 (Digitally remastered)"
    INDEX 01 36:47:53

  TRACK 07 AUDIO
    TITLE "Classic rock: SILVER MACHINE"
    PERFORMER "HAWKWIND : Silver Machine (single)"
    INDEX 01 51:45:61


SEO [PR] おまとめローン 冷え性対策 坂本龍馬 動画掲示板 レンタルサーバー SEO