[ オンエアリストに戻る ]
TITLE "Heavy Metal Syndicate #986"
FILE "2010-01-03.mp3" WAVE
  TRACK 01 AUDIO
    TITLE "Introduction: 春の海"
    PERFORMER "箏:宮城道雄 尺八:吉田晴風 : 春の海 (single)"
    INDEX 01 00:00:00

  TRACK 02 AUDIO
    TITLE "WE THREE KINGS"
    PERFORMER "HALFORD : Halford 3 - Winter Songs"
    INDEX 01 02:21:45

  TRACK 03 AUDIO
    TITLE "METROPOLIS / LOST IN TIME"
    PERFORMER "MORNING AFTER : You Can't Hurt Steel"
    INDEX 01 10:42:42

  TRACK 04 AUDIO
    TITLE "BLOOD RED STARS"
    PERFORMER "ROYAL HUNT : X"
    INDEX 01 19:39:63

  TRACK 05 AUDIO
    TITLE "7 DAYS & 7 NIGHTS"
    PERFORMER "POODLES : Clash of the Elements"
    INDEX 01 26:02:27

  TRACK 06 AUDIO
    TITLE "ACCORDING TO YOU"
    PERFORMER "ORIANTHI : Believe"
    INDEX 01 33:50:33

  TRACK 07 AUDIO
    TITLE "Classic rock: I CAN'T STOP THE FIRE"
    PERFORMER "ERIC MARTIN : Teachers (Soundtrack)"
    INDEX 01 51:53:53


SEO [PR] おまとめローン 冷え性対策 坂本龍馬 動画掲示板 レンタルサーバー SEO