[ オンエアリストに戻る ]
TITLE "Heavy Metal Syndicate #1037"
FILE "2010-12-26.mp3" WAVE
  TRACK 01 AUDIO
    TITLE "Classic rock: TWENTY TEN"
    PERFORMER "TINKERBELLS FAIRYDUST : Twenty Ten (single)"
    INDEX 01 00:00:00

  TRACK 02 AUDIO
    TITLE "WHAT AM I"
    PERFORMER "GOTTHARD : Heaven - Best of Ballads - Part 2"
    INDEX 01 15:40:26

  TRACK 03 AUDIO
    TITLE "GET BACK IN LINE"
    PERFORMER "MOTORHEAD : The World Is Yours"
    INDEX 01 23:00:59

  TRACK 04 AUDIO
    TITLE "NUTROCKER (Live 2008)"
    PERFORMER "KEITH EMERSON BAND featuring MARC BONILLA : Moscow (CD)"
    INDEX 01 31:21:18

  TRACK 05 AUDIO
    TITLE "Classic rock: DREAM ON"
    PERFORMER "With - RONNIE JAMES DIO ・ YNGWIE MALMSTEEN ・ STU HAMM ・ GREGG BISSONETTE ・ PAUL TAYLOR"
    Tribute to Aerosmith - Not the Same Old Song and Dance
    INDEX 01 52:01:19


SEO [PR] おまとめローン 冷え性対策 坂本龍馬 動画掲示板 レンタルサーバー SEO