[ オンエアリストに戻る ]
TITLE "Heavy Metal Syndicate #1036"
FILE "2010-12-19.mp3" WAVE
  TRACK 01 AUDIO
    TITLE "JUST WAR THEORY"
    PERFORMER "HURTSMILE : Hurtsmile"
    INDEX 01 00:00:00

  TRACK 02 AUDIO
    TITLE "THE SHOWDOWN"
    PERFORMER "ALLEN-LANDE : The Showdown"
    INDEX 01 08:15:55

  TRACK 03 AUDIO
    TITLE "THE GAME NEVER ENDS"
    PERFORMER "STRATOVARIUS : Elysium"
    INDEX 01 14:25:62

  TRACK 04 AUDIO
    TITLE "Reissue: SWEET LADY LUCK"
    PERFORMER "WHITESNAKE : Slip of the Tongue (20th anniversary edition)"
    INDEX 01 23:51:42

  TRACK 05 AUDIO
    TITLE "Reissue: FOOL FOR YOUR LOVING (Vai Voltage Mix)"
    PERFORMER "WHITESNAKE : Slip of the Tongue (20th anniversary edition)"
    INDEX 01 28:11:10

  TRACK 06 AUDIO
    TITLE "FORSAKEN AT THE GATES"
    PERFORMER "FORBIDDEN : Omega Wave"
    INDEX 01 33:54:10

  TRACK 07 AUDIO
    TITLE "Classic rock: DON'T DO THAT"
    PERFORMER "YOUNG & MOODY BAND : Don't Do That (single)"
    INDEX 01 52:39:14


SEO [PR] おまとめローン 冷え性対策 坂本龍馬 動画掲示板 レンタルサーバー SEO