[ オンエアリストに戻る ]
TITLE "Heavy Metal Syndicate #1035"
FILE "2010-12-12.mp3" WAVE
  TRACK 01 AUDIO
    TITLE "CHRISTMAS IS HERE"
    PERFORMER "BUCKCHERRY : Christmas Is Here (download single)"
    INDEX 01 00:00:00

  TRACK 02 AUDIO
    TITLE "TO BE WITH YOU"
    PERFORMER "LAST AUTUMN'S DREAM : Yes"
    INDEX 01 07:46:61

  TRACK 03 AUDIO
    TITLE "I GET THE FEELING"
    PERFORMER "MR. BIG : What If..."
    INDEX 01 13:01:74

  TRACK 04 AUDIO
    TITLE "UNDER FLAMING SKIES"
    PERFORMER "STRATOVARIUS : Elysium"
    INDEX 01 18:57:13

  TRACK 05 AUDIO
    TITLE "THE LAST LAUGH"
    PERFORMER "TANK : War Machine"
    INDEX 01 24:42:55

  TRACK 06 AUDIO
    TITLE "Reissue: SAME IN L.A."
    PERFORMER "DEEP PURPLE : Come Taste the Band (35th anniversary edition)"
    INDEX 01 36:05:44

  TRACK 07 AUDIO
    TITLE "Classic rock: YOU'VE MADE ME SO VERY HAPPY"
    PERFORMER "BLOOD, SWEAT & TEARS : Blood, Sweat & Tears"
    INDEX 01 52:13:30


SEO [PR] おまとめローン 冷え性対策 坂本龍馬 動画掲示板 レンタルサーバー SEO