[ オンエアリストに戻る ]
TITLE "Heavy Metal Syndicate #1034"
FILE "2010-12-05.mp3" WAVE
  TRACK 01 AUDIO
    TITLE "INFERNAL MAZE"
    PERFORMER "STRATOVARIUS : Elysium"
    INDEX 01 00:00:00

  TRACK 02 AUDIO
    TITLE "STILL AIN'T ENOUGH FOR ME"
    PERFORMER "MR. BIG : What If..."
    INDEX 01 11:37:03

  TRACK 03 AUDIO
    TITLE "ALL THE WAY UP"
    PERFORMER "MR. BIG : What If..."
    INDEX 01 14:23:03

  TRACK 04 AUDIO
    TITLE "AROUND THE WORLD"
    PERFORMER "MR. BIG : What If..."
    INDEX 01 18:59:06

  TRACK 05 AUDIO
    TITLE "I'VE FALLEN INTO YOU"
    PERFORMER "LAST AUTUMN'S DREAM : Yes"
    INDEX 01 24:07:56

  TRACK 06 AUDIO
    TITLE "REFUGEE"
    PERFORMER "TNT : A Farewell to Arms / Engine"
    INDEX 01 31:58:60

  TRACK 07 AUDIO
    TITLE "Classic rock: THERE SHE GOES AGAIN"
    PERFORMER "QUIREBOYS : A Bit of What You Fancy"
    INDEX 01 52:57:36


SEO [PR] おまとめローン 冷え性対策 坂本龍馬 動画掲示板 レンタルサーバー SEO